×
Hi-Res
声道: 双声道(Stereo) 


封面

71lNwih9SyL._SL1425_.jpg


--------------------------------------------------------------------------------------------------


简介


Aretha Franklin - Queen Of Soul Collection
艾瑞莎·富兰克林 - 女王之魂收藏(2020)

艾瑞莎·富兰克林(Aretha Franklin)是灵魂音乐以及整个美国流行音乐的巨头之一。她比其他任何一位表演者都更能代表灵魂,这是最受福音熏陶的地方。她在60年代后期的专辑中获得惊人的好评,例如《敬重》,《我从不爱一个人》,《愚人节》,《宝贝我爱你》,《我说一点祈祷》,《想““杰克建造的房子”以及其他几本书-为她赢得了“灵魂女王”头衔。
81pv2-ArAXL._SL1500_.jpg
--------------------------------------------------------------------------------------------------


曲目


1. Respect
2. Think
3. Spanish Harlem
4. (You Make Me Feel Like) A Natural Woman
5. I Say A Little Prayer
6. I Never Loved A Man (The Way I Love You)
7. Save Me
8. Chain Of Fools
9. See Saw
10. Rock Steady
11. Don't Play That Song (You Lied)
12. Angel
13. Ain't Nothing Like The Real Thing
14. Baby I Love You
15. Until You Come Back To Me (That's What I'm Gonna Do)
16. Oh No Not My Baby
17. The House That Jack Built
18. (Sweet Sweet Baby) Since You've Been Gone
19. You're All I Need To Get By
20. Call Me
21. Son Of A Preacher Man
22. Eleanor Rigby
23. Do Right Woman, Do Right Man
24. Bridge Over Troubled Water


--------------------------------------------------------------------------------------------------


FLAC LOSSLESS 24bit-96kHz
动态范围13

foob​​ar2000 1.4.3 / Dynamic Range Meter 1.1.1
记录日期:2021-1-30 14:02


DR峰值RMS持续时间跟踪

DR14 -0.30 dB -17.56 dB 2:29 01-Respect 参考
DR12 -2.23 dB -16.61 dB 2:18 02-Think 思考
DR12 -2.49 dB -16.68 dB 2:47 03-Chain Of Fools 愚人节
DR12 -1.69 dB -17.76 dB 3:36 04-I Say A Little Prayer 一点祷告
DR12 -1.09 dB -17.40 dB 2:43 05-(You Make Me Feel Like) A Natural Woman(你让我感觉很像)自然的女人
DR15 -0.06 dB -20.50 dB 2:44 06-I Never Loved A Man (The Way I Love You) 我从没爱过一个男人(我爱你的方式)
DR13 -1.63 dB -18.04 dB 3:38 07-Pullin' 普林
DR13 -3.71 dB -20.82 dB 3:16 08-Do Right Woman, Do Right Man 做正确的女人,做正确的人
DR13 -0.80 dB -18.35 dB 3:21 09-Dr. Feelgood (Love Is Serious Business)  爱是认真的事
DR14 -1.88 dB -19.68 dB 2:51 10-One Way Ticket 单程票
DR13 -4.08 dB -20.34 dB 3:34 11-You and Me 你和我
DR13 -2.12 dB -17.75 dB 3:38 12-You're All I Need To Get By 我需要得到的全部内容
DR13 -2.82 dB -18.28 dB 2:59 13-The Weight 重量
DR13 -1.21 dB -18.18 dB 3:19 14-Honest I Do 诚实我愿意
DR14 -0.20 dB -17.97 dB 2:31 15-Try Matty's 尝试Matty
DR13 -0.00 dB -15.53 dB 2:20 16-Save Me  拯救我
DR13 -3.07 dB -18.69 dB 2:55 17-Oh No Not My Baby 不是我的宝贝
DR14 -1.08 dB -17.85 dB 3:33 18-Spanish Harlem 西班牙哈林
DR15 -0.03 dB -19.01 dB 4:42 19-The Thrill Is Gone (From Yesterday's Kiss) 颤栗消失(来自昨天的吻)
DR13 -0.72 dB -16.53 dB 3:04 20-Why I Sing The Blues 为什么我唱蓝调
DR14 -0.44 dB -17.20 dB 3:15 21-Rock Steady 一直摇滚
DR13 -1.61 dB -18.16 dB 3:43 22-Oh Me Oh My (I'm A Fool For You Baby) 哦,我哦,我(我是个傻瓜,宝贝)
DR13 -0.06 dB -17.93 dB 4:01 23-Day Dreaming 梦想的一天
DR13 -3.50 dB -19.82 dB 5:33 24-Bridge Over Troubled Water 陷入困境的水上的桥

轨道数:24
官方DR值:DR13
采样率:96000 Hz
位深:24比特率
比特率:2616 kbps
编解码器: FLAC





游客,如果您要查看本帖隐藏内容请回复☆ ⌒_⌒☆。
  1、本主题所有内容均为互联网采集所得。
  2、SACDR.NET仅对作品介绍展示,不直接提供下载服务。
  3、版权归唱片公司和歌手所有,如侵犯您的权益,请通知我们,我们将及时删除。
  4、如果你喜欢主题所述内容,请你通过正规渠道购买正版。


评分

参与人数 1易币 +20 收起 理由
admin + 20 感谢分享

查看全部评分

精彩评论

12下一页
您需要登录后才可以回帖 登录 | 立即注册

本版积分规则

小黑屋/无图浏览/网站地图/SACDR.NET /粤ICP备16086594号-2/ 留言反馈 / 手机版 /Powered by Discuz! X3.4  © 2001-2017 Comsenz Inc.
点击这里给我发消息
嘿!有什么能帮到您的吗?