×
大家都在搜
Hi-Res
声道: 双声道(Stereo) 
封面
folder.jpg
简介:
德国黑胶母盘直接转录成wav文件格式,细节丰富,场面宽阔,立体感线条感都很强。

曲目:
1、Diabolus in Musica A
2、Diabolus in Musica B
缺CUE文件,请自行解决


游客,如果您要查看本帖隐藏内容请回复☆ ⌒_⌒☆。
  1、本主题所有内容均为互联网采集所得。
  2、SACD.NET仅对作品介绍展示,不直接提供下载服务。
  3、版权归唱片公司和歌手所有,如侵犯您的权益,请通知我们,我们将及时删除。
  4、如果你喜欢主题所述内容,请你通过正规渠道购买正版。

评分

参与人数 1易币 +20 收起 理由
admin + 20

查看全部评分

精彩评论

冒哥 2020-3-20 09:10:30

回帖奖励 +2 枚易币

感谢楼主的分享,收藏了
  收起(3)
  • ericgyf ericgyf :A:
    REM GENRE \"Classical music\"
    PERFORMER \"阿卡多\"
    TITLE \"魔鬼的颤音\"
    FILE \"Diabolus in Musica A.wav\" WAVE
      TRACK 01 AUDIO
        TITLE \"La campanella\"
        PERFORMER \"阿卡多\"
        INDEX 01 00:00:00
      TRACK 02 AUDIO
        TITLE \"Capriccio per violino solo n.5\"
        PERFORMER \"阿卡多\"
        INDEX 00 08:55:00
        INDEX 01 09:00:00
      TRACK 03 AUDIO
        TITLE \"Adagio flebile con sentimento\"
        PERFORMER \"阿卡多\"
        INDEX 00 11:16:00
        INDEX 01 11:21:00
      TRACK 04 AUDIO
        TITLE \"Rondo galante .Andautino gaio\"
        PERFORMER \"阿卡多\"
        INDEX 00 18:05:00
        INDEX 01 18:11:00
      TRACK 05 AUDIO
        TITLE \"Sonata moto perpetuo\"
        PERFORMER \"阿卡多\"
        INDEX 00 29:20:00
        INDEX 01 29:24:00
    B:
    REM GENRE \"Classical music\"
    PERFORMER \"阿卡多\"
    TITLE \"魔鬼的颤音\"
    FILE \"Diabolus in Musica B.wav\" WAVE
       TRACK 01 AUDIO
        TITLE \"Intrduzione e variazioni su\"
        PERFORMER \"阿卡多\"
        INDEX 01 00:00:00
      TRACK 02 AUDIO
        TITLE \"Capriccio per violino solo n.24\"
        PERFORMER \"阿卡多\"
        INDEX 00 06:45:00
        INDEX 01 06:48:00
      TRACK 03 AUDIO
        TITLE \"olacca.Andantino vivace\"
        PERFORMER \"阿卡多\"
        INDEX 00 11:12:00
        INDEX 01 11:18:00
      TRACK 04 AUDIO
        TITLE \"Rondo.Allegro spirtuoso\"
        PERFORMER \"阿卡多\"
        INDEX 00 22:49:00
        INDEX 01 22:55:00
    2020-03-25 11:37 回复
  • fuzhiqiang14 fuzhiqiang14 :回复 ericgyf :音轨有时间错误A面的最后一首曲子INDEX 01 29:24:00应该提前一秒改成INDEX 01 29:23:00,我来修正
    REM GENRE \"Classical music\"
    PERFORMER \"阿卡多\"
    TITLE \"魔鬼的颤音\"
    FILE \"Diabolus in Musica A.wav\" WAVE
      TRACK 01 AUDIO
        TITLE \"La campanella\"
        PERFORMER \"阿卡多\"
        INDEX 01 00:00:00
      TRACK 02 AUDIO
        TITLE \"Capriccio per violino solo n.5\"
        PERFORMER \"阿卡多\"
        INDEX 00 08:55:00
        INDEX 01 09:00:00
      TRACK 03 AUDIO
        TITLE \"Adagio flebile con sentimento\"
        PERFORMER \"阿卡多\"
        INDEX 00 11:16:00
        INDEX 01 11:21:00
      TRACK 04 AUDIO
        TITLE \"Rondo galante .Andautino gaio\"
        PERFORMER \"阿卡多\"
        INDEX 00 18:05:00
        INDEX 01 18:11:00
      TRACK 05 AUDIO
        TITLE \"Sonata moto perpetuo\"
        PERFORMER \"阿卡多\"
        INDEX 00 29:20:00
        INDEX 01 29:23:00
    2020-03-29 10:14 回复
  • fuzhiqiang14 fuzhiqiang14 :回复 ericgyf :B面的笑脸好无奈,其实是字母P
    REM GENRE \"Classical music\"
    PERFORMER \"阿卡多\"
    TITLE \"魔鬼的颤音\"
    FILE \"Diabolus in Musica B.wav\" WAVE
       TRACK 01 AUDIO
        TITLE \"Intrduzione e variazioni su\"
        PERFORMER \"阿卡多\"
        INDEX 01 00:00:00
      TRACK 02 AUDIO
        TITLE \"Capriccio per violino solo n.24\"
        PERFORMER \"阿卡多\"
        INDEX 00 06:45:00
        INDEX 01 06:48:00
      TRACK 03 AUDIO
        TITLE \" Polacca.Andantino vivace\"
        PERFORMER \"阿卡多\"
        INDEX 00 11:12:00
        INDEX 01 11:18:00
      TRACK 04 AUDIO
        TITLE \"Rondo.Allegro spirtuoso\"
        PERFORMER \"阿卡多\"
        INDEX 00 22:49:00
        INDEX 01 22:55:00
    2020-03-29 10:23 回复
  • 我也说一句

您需要登录后才可以回帖 登录 | 立即注册

本版积分规则

小黑屋/无图浏览/网站地图/SACDR.NET /粤ICP备16086594号-2/ 留言反馈 / 手机版 /Powered by Discuz! X3.4  © 2001-2017 Comsenz Inc.
点击这里给我发消息
嘿!有什么能帮到您的吗?