找回密码
 立即注册

电子Electronic Architect - Mine[32bit 192khz WV 百度云]

Hi-Res
声道: 双声道(Stereo) 
封面:
Folder.jpg
简介:
back.png
rchitect is a unique hybrid of idm, electronica and smooth ambient soundscapes inexhaustibly explored by german mastermind daniel myer. in a career spanning over fifteen years daniel has been connected to but never belonged to a host of scenes and styles. architect was created in 1998 and has since proven his mettle on a multitude of releases and on countless acclaimed concerts world-wide. in 2010 alan wilder (recoil) discovered architect's brilliance, which led to daniel performing as a support act for recoil on several acclaimed shows in europe and the united states. architects most pronounced quality is the accomplished combination of powerful grooves and atmospheric soundscapes resulting in music that is suitable for both listening and dancing.

architect's sixth full length album 'mine' constitutes an appreciable shift in direction compared to his previous works by adding compositional and instrumental innovations brand new to this project. supported by well-respected artists like ben lukas boysen a.k.a. hecq, guitarist and cellist felix gerlach, dejan samardzic (dsx), legendary producer, engineer and remixer paul kendall, canadian musician and sound designer comaduster and hungarian vocalist emese arvai-illes (black nail cabaret), architect marches to no one’s beat but his own, expanding ambitious electronica with comprehensive down-tempo song structures. moderate yet decisive beats and precise keyboard and string arrangements build the foundation for emese's exceptional voice transmitting suspense, depth and sinister beauty with perfectly fitting lyrics.

depending on how and when you listen, this atmospheric release can fill you with menace and sadness, or send you into a deep reverie. uncompromising, muscular and powerful, the music of 'mine' is also full of subtle touches and a supple sense of rhythm. highly recommended for devotees of moderat, recoil or house of black lanterns - this album will be 'yours' for sure.
曲目:
  1. REM GENRE "Electronic, Downtempo, IDM"
  2. REM DATE 2013 (Canada, Artoffact Records#AOF153)
  3. REM COMMENT "Rip by bezbazara"
  4. PERFORMER "Architect"
  5. TITLE "The Viking"
  6. FILE "Architect - Mine LP1.wv" WAVE
  7.   TRACK 01 AUDIO
  8.     TITLE "Altitude"
  9.     PERFORMER "Architect"
  10.     INDEX 01 00:00:00
  11.   TRACK 02 AUDIO
  12.     TITLE "Closer"
  13.     PERFORMER "Architect"
  14.     INDEX 01 05:46:51
  15.   TRACK 03 AUDIO
  16.     TITLE "Neverending"
  17.     PERFORMER "Architect"
  18.     INDEX 01 09:53:00
  19.   TRACK 04 AUDIO
  20.     TITLE "Rhythm Machine"
  21.     PERFORMER "Architect"
  22.     INDEX 01 14:56:69
  23.   TRACK 05 AUDIO
  24.     TITLE "Immaterial"
  25.     PERFORMER "Architect"
  26.     INDEX 01 19:49:36
  27.   TRACK 06 AUDIO
  28.     TITLE "The Sun"
  29.     PERFORMER "Architect"
  30.     INDEX 01 25:11:27
  31.   TRACK 07 AUDIO
  32.     TITLE "Set My World On Fire"
  33.     PERFORMER "Architect"
  34.     INDEX 01 30:54:46
  35. FILE "Architect - Mine LP2.wv" WAVE
  36.   TRACK 08 AUDIO
  37.     TITLE "Glazart"
  38.     PERFORMER "Architect"
  39.     INDEX 01 00:00:00
  40.    TRACK 09 AUDIO
  41.     TITLE "Region"
  42.     PERFORMER "Architect"
  43.     INDEX 01 03:32:04
  44.   TRACK 10 AUDIO
  45.     TITLE "Freaks"
  46.     PERFORMER "Architect"
  47.     INDEX 01 09:09:23
  48.   TRACK 11 AUDIO
  49.     TITLE "Bencq"
  50.     PERFORMER "Architect"
  51.     INDEX 01 14:45:02
  52.   TRACK 12 AUDIO
  53.     TITLE "The Mountain Top"
  54.     PERFORMER "Architect"
  55.     INDEX 01 20:28:00
  56.   TRACK 13 AUDIO
  57.     TITLE "Hummingbird"
  58.     PERFORMER "Architect"
  59.     INDEX 01 26:17:69
  60.   TRACK 14 AUDIO
  61.     TITLE "Altitude Feat. Comaduster"
  62.     PERFORMER "Architect"
  63.     INDEX 01 33:06:00
复制代码


试听:


游客,如果您要查看本帖隐藏内容请回复☆ ⌒_⌒☆。
  1、本主题所有内容均为互联网采集所得。
  2、SACD.NET仅对作品介绍展示,不直接提供下载服务。
  3、版权归唱片公司和歌手所有,如侵犯您的权益,请通知我们,我们将及时删除。
  4、如果你喜欢主题所述内容,请你通过正规渠道购买正版。
回复

举报

大神点评(3)

说点什么

您需要登录后才可以回帖 登录 | 立即注册
HOT • 推荐
发布新帖

© 2018 SACDR.NET

如果你还不知道SACD如何播放请看这里

简单快捷的SACD镜像分轨提取DSF转换格式

DTS镜像类NRG.MDF.Bin文件提取软件与教程

Foobar 2000播放器DTS插件与安装教程 如需帮助请给我们发邮件:admin@sacdr.net 关注公众号论坛信息同步:sacdr_net ------------------------------ 解压密码默认为www.eaymusic.com或者sacdr.net